Quick Browse
Movies
TV shows
Music
Games
Applications
Anime
Other

Latest Articles

Friends
RARBG
Torrents.me
Torrent Download
Movie4u
1337x
Torrent Downloads

LimeTorrents

Verified torrent Padman 2018 Hindi 1080p WEBRip x264 [MW]


    Seeders : 3      Leechers : 13

Hash :9AF5762D715A5ECC537C59188794405ACCF60447
Added :2 months ago by MovieFreakVerified torrent uploader in Movies
Size :1.9 GB
Stream :Watch Online Full Movie @ Movie4u
Share :


Padman 2018 Hindi 1080p WEBRip x264 [MW]
Download Direct And Anonymously








Note :

Please Update (Trackers Info) Before Downloading Torrents to See Updated Seeders And Leechers for Batter Download Speed.

Trackers List

Tracker NameLast CheckStatusSeedersLeechers
http://tracker.vanitycore.co:6969/announce2 months agosuccess311
http://public.popcorn-tracker.org:6969/announce2 months agosuccess310
http://9.rarbg.me:2730/announce2 months agosuccess213
http://9.rarbg.com:2800/announce2 months agosuccess213




Torrent File Content (1 file)


Padman 2018 Hindi 1080p WEBRip x264 [MW]
     Padman 2018 Hindi 1080p WEBRip x264 [MW].mkv -
1.9 GB



Description




[url=http://pichub.site/image/MwReI]
http://pichub.site/images/2018/05/12/MV5BODViYjQ0YTktMTM5NS00YTVkLWE5MmUtNGY1MzUwOGY0OTg2XkEyXkFqcGdeQXVyNjg5NzkxNTU._V1_QL50_SY1000_CR006901000_AL_.md.jpg
[/url]


General
Format : Matroska
Format version : Version 4 / Version 2
File size : 1.90 GiB
Duration : 2 h 11 min
Overall bit rate : 2 070 kb/s

Video
ID : 1
Format : AVC
Format/Info : Advanced Video Codec
Format profile : [email protected]
Format settings : CABAC / 4 Ref Frames
Format settings, CABAC : Yes
Format settings, RefFrames : 4 frames
Codec ID : V_MPEG4/ISO/AVC
Duration : 2 h 11 min
Bit rate : 1 900 kb/s
Width : 1 920 pixels
Height : 800 pixels
Display aspect ratio : 2.40:1
Frame rate mode : Constant
Frame rate : 30.000 FPS
Color space : YUV
Chroma subsampling : 4:2:0
Bit depth : 8 bits
Scan type : Progressive
Bits/(Pixel*Frame) : 0.041
Stream size : 1.72 GiB (91%)
Writing library : x264 core 155 r2893 b00bcaf
Default : Yes
Forced : No

Audio
ID : 2
Format : AAC
Format/Info : Advanced Audio Codec
Format profile : LC
Codec ID : A_AAC-2
Duration : 2 h 11 min
Bit rate : 192 kb/s
Channel(s) : 2 channels
Channel positions : Front: L R
Sampling rate : 48.0 kHz
Frame rate : 46.875 FPS (1024 SPF)
Compression mode : Lossy
Stream size : 180 MiB (9%)
Default : Yes
Forced : No





[url=http://pichub.site/image/MwGYY]
http://pichub.site/images/2018/05/12/00_15_24.md.jpg
[/url]
[url=http://pichub.site/image/MwmnB]
http://pichub.site/images/2018/05/12/00_15_26.md.jpg
[/url]
[url=http://pichub.site/image/MwNt6]
http://pichub.site/images/2018/05/12/00_49_06.md.jpg
[/url]
[url=http://pichub.site/image/MwU2t]
http://pichub.site/images/2018/05/12/01_02_00.md.jpg
[/url]
[url=http://pichub.site/image/Mwvj4]
http://pichub.site/images/2018/05/12/01_21_58.md.jpg
[/url]
[url=http://pichub.site/image/Mw0kp]
http://pichub.site/images/2018/05/12/01_23_24.md.jpg
[/url]


Related torrents

Torrent NameAddedSizeSeedLeechHealth
Verified torrent
2 months ago - in Movies1.04 GB37
Verified torrent
2 months ago - in Movies2.21 GB133
Verified torrent
2 months ago - in Movies1.43 GB215
2 months ago - in Movies1.03 GB52
Verified torrent
2 months ago - in Movies1.1 GB22359
Verified torrent
2 months ago - in Movies694.57 MB54

Note :

Feel free to post any comments about this torrent, including links to Subtitle, samples, screenshots, or any other relevant information. Please Dont Download anything from Comments, And Dont Post Links to Streaming Sites like Fmovies, Xmovies8, 123Movies, GoMovies, CMovieshd, Solarmovie, Watchfree, Putlockers, GoStream, m4ufree etc.

Comments (0 Comments)




Please login or create a FREE account to post comments

Latest Searches

| Film 216 | cardi maroon | AnyTrans for Android | Starship Troopers Traitor of Mars 2017 FGT | mia malkova clear | LATCHKEY CENSORED | brownbunnies 26 | easy driver pro 4 | thaigirlswild air best asian s mp4 | Lucero ranchero | blackheart 2015 | hateful eight 1080p x265 10bit | lynda Transcript | britney young s well hung | Bigg boss tamil season 2 500mb |