Quick Browse
Movies
TV shows
Music
Games
Applications
Anime
Other

Latest Articles

Friends
Torrents.me
Torrent Download
Movie4u
1337x
RARBG
Full Movies
Torrent Downloads

Verified torrent Pacific Rim 2 Uprising 2018 1080p WEB-DL AAC2 0 H264-SHITBOX


    Seeders : 188      Leechers : 31

Hash :C0D150EFBD41F712C20D8F56006F64C98F874104
Added :16 days ago in Movies - Movies
Size :3.69 GB
Stream :Watch Online Full Movie @ Movie4u
Share :









Note :

Please Update (Trackers Info) Before Downloading Torrents to See Updated Seeders And Leechers for Batter Download Speed.

Trackers List

Tracker NameLast CheckStatusSeedersLeechers
udp://tracker.mgtracker.org:2710/announce12 days agosuccess18831
udp://mgtracker.org:6969/announce12 days agosuccess18831
udp://tracker.leechers-paradise.org:6969/announce12 days agosuccess15730
udp://eddie4.nl:6969/announce12 days agosuccess15730
udp://shadowshq.yi.org:6969/announce12 days agosuccess15730
udp://tracker.opentrackr.org:1337/announce12 days agosuccess14526
udp://tracker.pirateparty.gr:6969/announce12 days agosuccess13531
udp://tracker.coppersurfer.tk:6969/announce12 days agosuccess13531
udp://public.popcorn-tracker.org:6969/announce12 days agosuccess12930
udp://tracker.vanitycore.co:6969/announce12 days agosuccess10127
udp://tracker.tiny-vps.com:6969/announce12 days agosuccess8423
udp://inferno.demonoid.pw:3418/announce12 days agosuccess7521
http://bigfoot1942.sektori.org:6969/announce12 days agosuccess166
http://tracker.trackerfix.com/announce12 days agosuccess00
udp://explodie.org:6969/announce12 days agosuccess00
udp://tracker.xku.tv:6969/announce12 days agosuccess00
udp://asnet.pw:2710/announce12 days agosuccess00
udp://tracker.cypherpunks.ru:6969/announce12 days agosuccess00
http://tracker.opentrackr.org/announce12 days agosuccess00
udp://tracker.sktorrent.net:6969/announce12 days agosuccess00
udp://9.rarbg.me:2710/announce12 days agosuccess00
udp://9.rarbg.to:2710/announce12 days agosuccess00
udp://tracker.blackunicorn.xyz:6969/announce12 days agosuccess00
udp://glotorrents.pw:6969/announce12 days agosuccess00
udp://tracker.trackerfix.com:80/announce12 days agosuccess00
http://tracker2.wasabii.com.tw:6969/announce12 days agosuccess00
udp://castradio.net:6969/announce12 days agosuccess00




Torrent File Content (3 files)


Pacific.Rim.2.Uprising.2018.1080p.WEB-DL.AAC2.0.H264-SHITBOX
     English.srt -
86.31 KB

     Pacific.Rim.2.Uprising.2018.1080p.WEB-DL.AAC2.0.H264-SHITBOX.mkv -
3.69 GB

     RARBG.txt -
31 bytes



Description



Movies : Action : HD 1080p / 1080i : English


Video
ID : 1
Format : AVC
Format/Info : Advanced Video Codec
Format profile : [email protected]
Format settings : CABAC / 5 Ref Frames
Format settings, CABAC : Yes
Format settings, ReFrames : 5 frames
Codec ID : V_MPEG4/ISO/AVC
Duration : 1 h 50 min
Bit rate : 4 516 kb/s
Width : 1 916 pixels
Height : 796 pixels
Display aspect ratio : 2.40:1
Frame rate mode : Constant
Frame rate : 23.976 (23976/1000) FPS
Color space : YUV
Chroma subsampling : 4:2:0
Bit depth : 8 bits
Scan type : Progressive
Bits/(Pixel*Frame) : 0.124
Stream size : 3.49 GiB (95%)
Title : Pacific.Rim.2.Uprising.2018.1080p.WEB-DL.AAC2.0.H264-SHITBOX
Language : English
Default : Yes
Forced : No
Color range : Limited
Color primaries : BT.709
Transfer characteristics : BT.709
Matrix coefficients : BT.709

Audio
ID : 2
Format : AAC
Format/Info : Advanced Audio Codec
Format profile : LC
Codec ID : A_AAC-2
Duration : 1 h 50 min
Bit rate : 256 kb/s
Channel(s) : 2 channels
Channel positions : Front: L R
Sampling rate : 48.0 kHz
Frame rate : 46.875 FPS (1024 SPF)
Compression mode : Lossy
Delay relative to video : -43 ms
Stream size : 203 MiB (5%)
Title : Pacific.Rim.2.Uprising.2018.1080p.WEB-DL.AAC2.0.H264-SHITBOX
Language : English
Default : Yes
Forced : No

Text
ID : 3
Format : UTF-8
Codec ID : S_TEXT/UTF8
Codec ID/Info : UTF-8 Plain Text
Duration : 1 h 40 min
Bit rate : 57 b/s
Count of elements : 1127
Stream size : 42.3 KiB (0%)
Language : English
Default : Yes
Forced : No

Notes: Video itunes Russia + audio 1080p korsub.


Related torrents

Torrent NameAddedSizeSeedLeechHealth
Last Month - in Movies4.6 GB00
Last Month - in Movies2.99 GB00
Verified torrent
Last Month - in Movies4.43 GB1,017101
Last Month - in Movies4.43 GB221
Verified torrent
17 days ago - in Movies2.04 GB389
18 days ago - in Movies3.35 GB75

Note :

Feel free to post any comments about this torrent, including links to Subtitle, samples, screenshots, or any other relevant information. Please Dont Download anything from Comments, And Dont Post Links to Streaming Sites like Fmovies, Xmovies8, 123Movies, GoMovies, CMovieshd, Solarmovie, Watchfree, Putlockers, GoStream, m4ufree etc.

Comments (0 Comments)




Please login or create a FREE account to post comments

Latest Searches

| Xzibit dragan09 | avalon english | Molly Moon E l Incredibile Libro Dell Ipnotismo 2015 | Love Actually 2003 720p BluRay DTS | HorribleSubs Amanchu | Baltimore Ravens vs Steelers | seventies 3 | speed guy martin transit van | COMMISSARIO EBOOK ITA | Person of Interest S02E04 HDTV x264 LOLettv |