Quick Browse
Movies
TV shows
Music
Games
Applications
Anime
Other

Latest Articles

Friends
Torrents.me
Torrent Download
Movie4u
1337x
RARBG
Full Movies
Torrent Downloads

Verified torrent October 2018 Hindi 1080p WEB-DL x264 ESub [MW]


    Seeders : 0      Leechers : 0

Hash :F509CDEEA6E9C3F2227936B479F3932CC826FEF6
Added :5 days ago by MovieFreakVerified torrent uploader in Movies
Size :1.9 GB
Stream :Watch Online Full Movie @ Movie4u
Share :


October 2018 Hindi 1080p WEB-DL x264 ESub [MW]
Download Direct And Anonymously








Note :

Please Update (Trackers Info) Before Downloading Torrents to See Updated Seeders And Leechers for Batter Download Speed.

Trackers List

Tracker NameLast CheckStatusSeedersLeechers




Torrent File Content (1 file)


October 2018 Hindi 1080p WEB-DL x264 ESub [MW]
     October 2018 Hindi 1080p WEB-DL x264 ESub [MW].mkv -
1.9 GB



Description





[url=http://pichub.site/image/M3mzy]
http://pichub.site/images/2018/06/10/MV5BNTM5NjZmMTgtMDEwMi00ZTc3LWIwOTItY2I2NjBiYmZlNzRjXkEyXkFqcGdeQXVyODE5NzE3OTE._V1_QL50_SY1000_CR007541000_AL_.md.jpg
[/url]

General
Format : Matroska
Format version : Version 4 / Version 2
File size : 1.90 GiB
Duration : 1 h 54 min
Overall bit rate : 2 374 kb/s

Video
ID : 1
Format : AVC
Format/Info : Advanced Video Codec
Format profile : [email protected]
Format settings : CABAC / 4 Ref Frames
Format settings, CABAC : Yes
Format settings, RefFrames : 4 frames
Codec ID : V_MPEG4/ISO/AVC
Duration : 1 h 54 min
Bit rate : 2 200 kb/s
Width : 1 920 pixels
Height : 812 pixels
Display aspect ratio : 2.35:1
Frame rate mode : Constant
Frame rate : 23.976 (23976/1000) FPS
Color space : YUV
Chroma subsampling : 4:2:0
Bit depth : 8 bits
Scan type : Progressive
Bits/(Pixel*Frame) : 0.059
Stream size : 1.74 GiB (92%)
Writing library : x264 core 155 r2901 7d0ff22
Default : Yes
Forced : No

Audio
ID : 3
Format : AAC
Format/Info : Advanced Audio Codec
Format profile : LC
Codec ID : A_AAC-2
Duration : 1 h 54 min
Bit rate : 192 kb/s
Channel(s) : 2 channels
Channel positions : Front: L R
Sampling rate : 48.0 kHz
Frame rate : 46.875 FPS (1024 SPF)
Compression mode : Lossy
Stream size : 157 MiB (8%)
Language : Hindi
Default : Yes
Forced : No

Text
ID : 2
Format : UTF-8
Codec ID : S_TEXT/UTF8
Codec ID/Info : UTF-8 Plain Text
Duration : 1 h 46 min
Bit rate : 41 b/s
Count of elements : 1118
Stream size : 32.6 KiB (0%)
Default : Yes
Forced : No






[url=http://pichub.site/image/M3osg]
http://pichub.site/images/2018/06/10/00_05_02.md.jpg
[/url]
[url=http://pichub.site/image/M32aI]
http://pichub.site/images/2018/06/10/00_08_14.md.jpg
[/url]
[url=http://pichub.site/image/M35zX]
http://pichub.site/images/2018/06/10/00_14_41.md.jpg
[/url]
[url=http://pichub.site/image/M3l58]
http://pichub.site/images/2018/06/10/00_27_03.md.jpg
[/url]
[url=http://pichub.site/image/M36qJ]
http://pichub.site/images/2018/06/10/00_50_15.md.jpg
[/url]
[url=http://pichub.site/image/M3Xw5]
http://pichub.site/images/2018/06/10/00_53_48.md.jpg
[/url]
[url=http://pichub.site/image/M3n0h]
http://pichub.site/images/2018/06/10/01_18_42.md.jpg
[/url]
[url=http://pichub.site/image/M3sTj]
http://pichub.site/images/2018/06/10/01_32_32.md.jpg
[/url]


Related torrents

Torrent NameAddedSizeSeedLeechHealth
5 days ago - in Movies916.26 MB3694
Verified torrent
9 days ago - in Movies1.66 GB00
Verified torrent
13 days ago - in Movies1.71 GB23
Verified torrent
Last Month - in Movies1.67 GB211
6 days ago - in Movies3.02 GB00

Note :

Feel free to post any comments about this torrent, including links to Subtitle, samples, screenshots, or any other relevant information. Please Dont Download anything from Comments, And Dont Post Links to Streaming Sites like Fmovies, Xmovies8, 123Movies, GoMovies, CMovieshd, Solarmovie, Watchfree, Putlockers, GoStream, m4ufree etc.

Comments (0 Comments)




Please login or create a FREE account to post comments

Latest Searches

| hero chad kroeger josey | No Bullshit Chris Brown | Cmon Cmon one direction | foster wallace infinite jest | discoteca as melhores | eyes of north korea | batman new 52 2 | Tokyo ghoul season 1 animerg | Fifty shades of grey | Free feat Emeli Sande |