Quick Browse
Movies
TV shows
Music
Games
Applications
Anime
Other

Latest Articles

Friends
Torrents.me
Torrent Download
Movie4u
1337x
RARBG
Full Movies
Torrent Downloads

Kamara Kattu (2015) TAMIL DVDRIP xviD-SSM mp4


    Seeders : 0      Leechers : 0

Hash :A0BD398CAF3A121436535005F179D692410F8C39
Added :1 Year+ in Other - Other
Size :798.9 MB
Stream :Watch Online Full Movie @ Movie4u
Share :


Kamara Kattu (2015) TAMIL DVDRIP xviD-SSM mp4
Download Direct And Anonymously








Note :

Please Update (Trackers Info) Before Downloading Torrents to See Updated Seeders And Leechers for Batter Download Speed.

Trackers List

Tracker NameLast CheckStatusSeedersLeechers




Torrent File Content (1 file)


     Kamara Kattu (2015) TAMIL DVDRIP xviD-SSM.mp4 -
798.9 MB



Description



 							
SSMovie.co Presents:

Kamara Kattu (2015) TAMIL DVDRIP xviD-SSM.mp4


image

Kamara Kattu Full Movie Screenshots

Kamara Kattu Movie - Screen #1
Kamara Kattu Film - Screen #2
Kamara Kattu - Screen #3



  Format                                   : MPEG-4 
Format profile                           : Base Media  Codec ID                            
    : isom  File size                                : 799 MiB  Duration                    
            : 2h 32mn  Overall bit rate                         : 734 Kbps  Writing application    
                 : Lavf56.40.101    Video  ID                                       : 1 
Format                                   : AVC  Format/Info                            
 : Advanced Video Codec  Format profile                           : [email protected]  Format settings, CABAC    
              : Yes  Format settings, ReFrames                : 4 frames  Codec ID              
                  : avc1  Codec ID/Info                            : Advanced Video Coding 
Duration                                 : 2h 32mn  Bit rate                            
    : 582 Kbps  Width                                    : 900 pixels  Height              
                    : 380 pixels  Display aspect ratio                     : 2.35:1  Frame rate mode
                         : Constant  Frame rate                               : 25.000 fps 
Color space                              : YUV  Chroma subsampling                       :
4:2:0  Bit depth                                : 8 bits  Scan type                        
       : Progressive  Bits/(Pixel*Frame)                       : 0.068  Stream size              
               : 634 MiB (79%)  Writing library                          : x264 core 142  Encoding
settings                        : cabac=1 / ref=2 / deblock=1:0:0 / analyse=0x3:0x113 / me=hex / subme=4 /
psy=1 / psy_rd=1.00:0.00 / mixed_ref=0 / me_range=16 / chroma_me=1 / trellis=1 / 8x8dct=1 / cqm=0 / deadzone=21,11 /
fast_pskip=1 / chroma_qp_offset=0 / threads=48 / lookahead_threads=2 / sliced_threads=0 / nr=0 / decimate=1 /
interlaced=0 / bluray_compat=0 / constrained_intra=0 / bframes=3 / b_pyramid=2 / b_adapt=1 / b_bias=0 / direct=1 /
weightb=1 / open_gop=0 / weightp=1 / keyint=250 / keyint_min=25 / scenecut=40 / intra_refresh=0 / rc_lookahead=20 /
rc=crf / mbtree=1 / crf=26.0 / qcomp=0.60 / qpmin=0 / qpmax=69 / qpstep=4 / vbv_maxrate=800 / vbv_bufsize=4000 /
crf_max=0.0 / nal_hrd=none / filler=0 / ip_ratio=1.40 / aq=1:1.00    Audio  ID                            
          : 2  Format                                   : AAC  Format/Info                
             : Advanced Audio Codec  Format profile                           : LC  Codec ID    
                            : 40  Duration                                 : 2h 32mn  Bit
rate mode                            : Constant  Bit rate                                
: 144 Kbps  Channel(s)                               : 2 channels  Channel positions              
         : Front: L R  Sampling rate                            : 44.1 KHz  Compression mode      
                  : Lossy  Stream size                              : 157 MiB (20%)       


Related torrents

Torrent NameAddedSizeSeedLeechHealth
1 Year+ - in Movies704.62 MB00
1 Year+ - in Movies718.5 MB529
1 Year+ - in Other692.46 MB2,4241,593
1 Year+ - in Other639.68 MB4,0732,586
1 Year+ - in Other339.67 MB10

Note :

Feel free to post any comments about this torrent, including links to Subtitle, samples, screenshots, or any other relevant information. Please Dont Download anything from Comments, And Dont Post Links to Streaming Sites like Fmovies, Xmovies8, 123Movies, GoMovies, CMovieshd, Solarmovie, Watchfree, Putlockers, GoStream, m4ufree etc.

Comments (0 Comments)




Please login or create a FREE account to post comments

Latest Searches

| missa mae | Pacific Rim Uprising 2018 1080p 3D | regional anaesthesia stimulation and ultrasound | Star Trek 2009 1080p Bluray x265 HEVC 10bit AAC 5 1 Tigole UTR | Hells Kitchen US S16E13 HDTV x264 FUM ettv | salaam 2007 720p | MommysGirl Chloe Foster India Summer Jane Wilde | 720p HDTV x264 TBS | deep house nation | jacks pov 2006 |