Quick Browse
Movies
TV shows
Music
Games
Applications
Anime
Other

Latest Articles

Friends
RARBG
Torrents.me
Torrent Download
Movie4u
1337x
Torrent Downloads

LimeTorrents

Verified torrent Hichki 2018 Hindi 1080p WEB-DL DD 5.1 x264 ESub [MW]


    Seeders : 26      Leechers : 7

Hash :3A1695717B29729695619E31761BC33CE829C35E
Added :2 months ago by MovieFreakVerified torrent uploader in Movies
Size :1.93 GB
Stream :Watch Online Full Movie @ Movie4u
Share :









Note :

Please Update (Trackers Info) Before Downloading Torrents to See Updated Seeders And Leechers for Batter Download Speed.

Trackers List

Tracker NameLast CheckStatusSeedersLeechers
udp://tracker.leechers-paradise.org:6969/announceLast Monthsuccess266
udp://tracker.coppersurfer.tk:6969/announceLast Monthsuccess267
udp://eddie4.nl:6969/announceLast Monthsuccess266
udp://tracker.pirateparty.gr:6969/announceLast Monthsuccess267
udp://9.rarbg.me:2710/announceLast Monthsuccess246
udp://tracker.opentrackr.org:1337/announceLast Monthsuccess246
udp://9.rarbg.to:2710/announceLast Monthsuccess246
udp://tracker.vanitycore.co:6969/announceLast Monthsuccess196
udp://public.popcorn-tracker.org:6969/announceLast Monthsuccess196
udp://tracker.mgtracker.org:2710/announceLast Monthsuccess21
http://public.popcorn-tracker.org:6969/announce2 months agosuccess210
http://9.rarbg.to:2740/announce2 months agosuccess29
http://tracker.vanitycore.co:6969/announce2 months agosuccess210
http://bigfoot1942.sektori.org:6969/announceLast Monthsuccess13
udp://tracker.sktorrent.net:6969/announceLast Monthsuccess00
udp://tracker.internetwarriors.net:1337/announceLast Monthsuccess00
udp://tracker.x4w.co:6969/announceLast Monthsuccess00
udp://mgtracker.org:6969/announceLast Monthsuccess00
udp://asnet.pw:2710/announceLast Monthsuccess00
http://tracker.opentrackr.org/announceLast Monthsuccess00
udp://tracker.zer0day.to:1337/announceLast Monthsuccess00
udp://explodie.org:6969/announceLast Monthsuccess00
udp://ipv4.tracker.harry.lu:80/announceLast Monthsuccess00
http://tracker.trackerfix.com/announceLast Monthsuccess00
http://announce.torrentsmd.com:6969/announceLast Monthsuccess00
udp://castradio.net:6969/announceLast Monthsuccess00
udp://tracker.mg64.net:6881/announceLast Monthsuccess00
http://tracker2.wasabii.com.tw:6969/announceLast Monthsuccess00
udp://tracker.pomf.se:80/announceLast Monthsuccess00
udp://tracker.trackerfix.com:80/announceLast Monthsuccess00
udp://glotorrents.pw:6969/announceLast Monthsuccess00
udp://tracker4.piratux.com:6969/announceLast Monthsuccess00
udp://tracker.blackunicorn.xyz:6969/announceLast Monthsuccess00
udp://p4p.arenabg.ch:1337/announceLast Monthsuccess00




Torrent File Content (1 file)


Hichki 2018 Hindi 1080p WEB-DL DD 5.1 x264 ESub [MW]
     Hichki 2018 Hindi 1080p WEB-DL DD 5.1 x264 ESub [MW].mkv -
1.93 GB



Description




[url=http://pichub.site/image/MdK00]
http://pichub.site/images/2018/05/08/MV5BMDNkZTVjYWMtZGJjNS00YTM5LWI1YmMtYmY0ZDFlOWNlZjFmXkEyXkFqcGdeQXVyMTkzOTcxOTg._V1_QL50_SY1000_CR007141000_AL_.md.jpg
[/url]


General
Format : Matroska
Format version : Version 4 / Version 2
File size : 1.93 GiB
Duration : 1 h 56 min
Overall bit rate : 2 376 kb/s

Video
ID : 1
Format : AVC
Format/Info : Advanced Video Codec
Format profile : [email protected]
Format settings : CABAC / 4 Ref Frames
Format settings, CABAC : Yes
Format settings, RefFrames : 4 frames
Codec ID : V_MPEG4/ISO/AVC
Duration : 1 h 56 min
Bit rate : 2 000 kb/s
Width : 1 912 pixels
Height : 796 pixels
Display aspect ratio : 2.40:1
Frame rate mode : Constant
Frame rate : 23.976 (24000/1001) FPS
Color space : YUV
Chroma subsampling : 4:2:0
Bit depth : 8 bits
Scan type : Progressive
Bits/(Pixel*Frame) : 0.055
Stream size : 1.62 GiB (84%)
Writing library : x264 core 155 r2893 b00bcaf
Default : Yes
Forced : No

Audio
ID : 2
Format : AC-3
Format/Info : Audio Coding 3
Codec ID : A_AC3
Duration : 1 h 56 min
Bit rate mode : Constant
Bit rate : 384 kb/s
Channel(s) : 6 channels
Channel positions : Front: L C R, Side: L R, LFE
Sampling rate : 48.0 kHz
Frame rate : 31.250 FPS (1536 SPF)
Bit depth : 16 bits
Compression mode : Lossy
Stream size : 320 MiB (16%)
Service kind : Complete Main
Default : Yes
Forced : No

Text
ID : 3
Format : UTF-8
Codec ID : S_TEXT/UTF8
Codec ID/Info : UTF-8 Plain Text
Duration : 1 h 52 min
Bit rate : 54 b/s
Count of elements : 1402
Stream size : 45.0 KiB (0%)
Default : Yes
Forced : No

Menu
00:00:00.000 : en:1
00:08:13.994 : en:2
00:18:06.961 : en:3
00:29:44.992 : en:4
00:42:32.008 : en:5
00:52:10.002 : en:6
01:05:23.002 : en:7
01:15:46.000 : en:8
01:25:44.973 : en:9
01:33:42.033 : en:10
01:43:39.004 : en:11
01:53:07.990 : en:12





[url=http://pichub.site/image/MdLqX]
http://pichub.site/images/2018/05/08/00_30_07.md.jpg
[/url]
[url=http://pichub.site/image/Md0lI]
http://pichub.site/images/2018/05/08/00_38_02.md.jpg
[/url]
[url=http://pichub.site/image/Mdoy8]
http://pichub.site/images/2018/05/08/00_41_39.md.jpg
[/url]
[url=http://pichub.site/image/MdpLJ]
http://pichub.site/images/2018/05/08/00_50_17.md.jpg
[/url]
[url=http://pichub.site/image/Md2F5]
http://pichub.site/images/2018/05/08/00_56_48.md.jpg
[/url]
[url=http://pichub.site/image/Mdldh]
http://pichub.site/images/2018/05/08/00_58_42.md.jpg
[/url]
[url=http://pichub.site/image/MdP3r]
http://pichub.site/images/2018/05/08/01_11_33.md.jpg
[/url]
[url=http://pichub.site/image/Md6uj]
http://pichub.site/images/2018/05/08/01_25_10.md.jpg
[/url]
[url=http://pichub.site/image/MdnIk]
http://pichub.site/images/2018/05/08/01_50_50.md.jpg
[/url]


Related torrents

Torrent NameAddedSizeSeedLeechHealth
Verified torrent
3 months ago - in Movies1.84 GB15
2 months ago - in Movies3 GB31
2 months ago - in Movies4.13 GB183
2 months ago - in Movies4.13 GB00
Verified torrent
2 months ago - in Movies1.85 GB72
Verified torrent
2 months ago - in Movies1.99 GB23

Note :

Feel free to post any comments about this torrent, including links to Subtitle, samples, screenshots, or any other relevant information. Please Dont Download anything from Comments, And Dont Post Links to Streaming Sites like Fmovies, Xmovies8, 123Movies, GoMovies, CMovieshd, Solarmovie, Watchfree, Putlockers, GoStream, m4ufree etc.

Comments (0 Comments)




Please login or create a FREE account to post comments

Latest Searches

| Sheri Tepper Southshore | gran pal | ibm client access 6 1 | alone movie full 2015 | bryan adams unplugged album | landscape cinema | excel invoice | coraline gesproken | Cisco Secure Firewall Services Module FWSM 2008 CuPpY | Sheri S Tepper Northshore | kosem sultan dvd 74 gr | LILY JORDAN JOHNNY CASTLE | Comicstaan S01 Hindi Complete Episode 1 4 | Now And Forever Plastic Boy | In Da House 5 |