Quick Browse
Movies
TV shows
Music
Games
Applications
Anime
Other

Latest Articles

Friends
RARBG
Torrents.me
Torrent Download
Movie4u
1337x
Torrent Downloads

LimeTorrents

Verified torrent Central Intelligence 2016 Theatrical 1080p BluRay x264 Dual Audio [Hindi DTS 5.1 - English DD 5.1] ESub [MW]


    Seeders : 20      Leechers : 7


Note :

Please Update (Trackers Info) Before Downloading Torrents to See Updated Seeders And Leechers for Batter Download Speed.

Trackers List

Tracker NameLast CheckStatusSeedersLeechers
udp://tracker.pirateparty.gr:6969/announceLast Monthsuccess205
udp://tracker.coppersurfer.tk:6969/announceLast Monthsuccess205
udp://9.rarbg.me:2710/announceLast Monthsuccess162
udp://tracker.leechers-paradise.org:6969/announceLast Monthsuccess164
udp://eddie4.nl:6969/announceLast Monthsuccess164
udp://9.rarbg.to:2710/announceLast Monthsuccess162
udp://shadowshq.yi.org:6969/announceLast Monthsuccess164
udp://tracker.opentrackr.org:1337/announceLast Monthsuccess137
udp://public.popcorn-tracker.org:6969/announceLast Monthsuccess124
udp://tracker.tiny-vps.com:6969/announceLast Monthsuccess92
udp://inferno.demonoid.pw:3418/announceLast Monthsuccess84
udp://tracker.vanitycore.co:6969/announceLast Monthsuccess64
http://tracker.opentrackr.org/announceLast Monthsuccess00
udp://tracker.mgtracker.org:2710/announceLast Monthsuccess01
udp://tracker.cypherpunks.ru:6969/announceLast Monthsuccess00
udp://asnet.pw:2710/announceLast Monthsuccess00
udp://tracker.xku.tv:6969/announceLast Monthsuccess00
http://tracker2.wasabii.com.tw:6969/announceLast Monthsuccess00
http://tracker.trackerfix.com/announceLast Monthsuccess00
http://bigfoot1942.sektori.org:6969/announceLast Monthsuccess00
udp://castradio.net:6969/announceLast Monthsuccess00
udp://explodie.org:6969/announceLast Monthsuccess00
udp://mgtracker.org:6969/announceLast Monthsuccess01
udp://tracker.trackerfix.com:80/announceLast Monthsuccess00
udp://glotorrents.pw:6969/announceLast Monthsuccess00
udp://tracker.blackunicorn.xyz:6969/announceLast Monthsuccess00
udp://p4p.arenabg.ch:1337/announceLast Monthsuccess00
udp://tracker.sktorrent.net:6969/announceLast Monthsuccess00




Torrent File Content (1 file)


Central Intelligence 2016 Theatrical 1080p BluRay x264 Dual Audio [Hindi DTS 5.1 - English DD 5.1] ESub [MW]
     Central Intelligence 2016 Theatrical 1080p BluRay x264 Dual Audio [Hindi DTS 5.1 - English DD 5.1] ESub [MW].mkv -
2.39 GB



Description




[url=http://pichub.site/image/Mo4Ct]
http://pichub.site/images/2018/05/29/MV5BMjA2NzEzNjIwNl5BMl5BanBnXkFtZTgwNzgwMTEzNzE._V1_QL50_SY1000_CR006741000_AL_.md.jpg
[/url]



General
Format : Matroska
Format version : Version 4 / Version 2
File size : 2.39 GiB
Duration : 1 h 47 min
Overall bit rate : 3 177 kb/s

Video
ID : 1
Format : AVC
Format/Info : Advanced Video Codec
Format profile : [email protected]
Format settings : CABAC / 4 Ref Frames
Format settings, CABAC : Yes
Format settings, RefFrames : 4 frames
Codec ID : V_MPEG4/ISO/AVC
Duration : 1 h 47 min
Bit rate : 2 200 kb/s
Width : 1 920 pixels
Height : 800 pixels
Display aspect ratio : 2.40:1
Frame rate mode : Constant
Frame rate : 23.976 (24000/1001) FPS
Color space : YUV
Chroma subsampling : 4:2:0
Bit depth : 8 bits
Scan type : Progressive
Bits/(Pixel*Frame) : 0.060
Stream size : 1.64 GiB (69%)
Writing library : x264 core 155 r2893 b00bcaf
Default : Yes
Forced : No

Audio #1
ID : 2
Format : DTS
Format/Info : Digital Theater Systems
Codec ID : A_DTS
Duration : 1 h 47 min
Bit rate mode : Constant
Bit rate : 768 kb/s
Channel(s) : 6 channels
Channel positions : Front: L C R, Side: L R, LFE
Sampling rate : 48.0 kHz
Frame rate : 93.750 FPS (512 SPF)
Bit depth : 24 bits
Compression mode : Lossy
Stream size : 591 MiB (24%)
Language : Hindi
Default : Yes
Forced : No

Audio #2
ID : 3
Format : AC-3
Format/Info : Audio Coding 3
Codec ID : A_AC3
Duration : 1 h 47 min
Bit rate mode : Constant
Bit rate : 224 kb/s
Channel(s) : 6 channels
Channel positions : Front: L C R, Side: L R, LFE
Sampling rate : 48.0 kHz
Frame rate : 31.250 FPS (1536 SPF)
Bit depth : 16 bits
Compression mode : Lossy
Stream size : 172 MiB (7%)
Language : English
Service kind : Complete Main
Default : No
Forced : No

Text
ID : 4
Format : UTF-8
Codec ID : S_TEXT/UTF8
Codec ID/Info : UTF-8 Plain Text
Duration : 1 h 45 min
Bit rate : 91 b/s
Count of elements : 2373
Stream size : 71.0 KiB (0%)
Default : Yes
Forced : No

Menu
00:00:00.000 : en:Chapter 1
00:09:12.052 : en:Chapter 2
00:20:11.752 : en:Chapter 3
00:30:31.079 : en:Chapter 4
00:43:21.766 : en:Chapter 5
00:52:42.493 : en:Chapter 6
00:58:09.861 : en:Chapter 7
01:10:12.458 : en:Chapter 8
01:18:36.754 : en:Chapter 9
01:28:56.289 : en:Chapter 10
01:39:32.258 : en:Chapter 11



[url=http://pichub.site/image/ModfD]
http://pichub.site/images/2018/05/29/00_07_50.th.jpg
[/url] [url=http://pichub.site/image/Mo7CZ]
http://pichub.site/images/2018/05/29/00_18_58.th.jpg
[/url] [url=http://pichub.site/image/MoVrg]
http://pichub.site/images/2018/05/29/00_24_46.th.jpg
[/url] [url=http://pichub.site/image/MocWI]
http://pichub.site/images/2018/05/29/00_41_51.th.jpg
[/url] [url=http://pichub.site/image/Mow7X]
http://pichub.site/images/2018/05/29/00_51_31.th.jpg
[/url] [url=http://pichub.site/image/MoyN8]
http://pichub.site/images/2018/05/29/01_12_23.th.jpg
[/url] [url=http://pichub.site/image/MoC1J]
http://pichub.site/images/2018/05/29/01_26_28.th.jpg
[/url] [url=http://pichub.site/image/MoiO5]
http://pichub.site/images/2018/05/29/01_34_39.th.jpg
[/url]



Related torrents

Torrent NameAddedSizeSeedLeechHealth
Verified torrent
Last Month - in Movies1.44 GB335
2 months ago - in Movies1.46 GB165
9 months ago - in Other1.2 GB00
1 Year+ - in Movies1.21 GB115
1 Year+ - in Movies2.75 GB04

Note :

Feel free to post any comments about this torrent, including links to Subtitle, samples, screenshots, or any other relevant information. Please Dont Download anything from Comments, And Dont Post Links to Streaming Sites like Fmovies, Xmovies8, 123Movies, GoMovies, CMovieshd, Solarmovie, Watchfree, Putlockers, GoStream, m4ufree etc.

Comments (0 Comments)




Please login or create a FREE account to post comments

Latest Searches

| ita alvin superstar 1 | Person of Interest s04e07 xvid fum | Waka Flocka Flame Deluxe Edition | Single sofa | Anna Joy Axa Jay Lillie Mae And Lulu Love Pleasure Room | capture art | idman628build15 | babe in fishnet | Bedazzled 1967 x265 | ragazzo the invisible | lesbian seduced milf | HorribleSubs Black Clover 1080p | haruhi light novels | DLC 3 4 | political cartoons |