Quick Browse
Movies
TV shows
Music
Games
Applications
Anime
Other

Latest Articles

Friends
RARBG
Torrents.me
Torrent Download
Movie4u
1337x
Torrent Downloads

LimeTorrents

Verified torrent Black Panther 2018 1080p BluRay x264 Dual Audio [Hindi DD 2.0 - English DD 5.1] ESub [MW]


    Seeders : 86      Leechers : 20


Note :

Please Update (Trackers Info) Before Downloading Torrents to See Updated Seeders And Leechers for Batter Download Speed.

Trackers List

Tracker NameLast CheckStatusSeedersLeechers
udp://tracker.pirateparty.gr:6969/announceLast Monthsuccess8620
udp://tracker.coppersurfer.tk:6969/announceLast Monthsuccess8620
udp://eddie4.nl:6969/announceLast Monthsuccess8419
udp://tracker.leechers-paradise.org:6969/announceLast Monthsuccess8419
udp://shadowshq.yi.org:6969/announceLast Monthsuccess8419
udp://tracker.opentrackr.org:1337/announceLast Monthsuccess7715
udp://9.rarbg.to:2710/announceLast Monthsuccess6716
udp://9.rarbg.me:2710/announceLast Monthsuccess6716
udp://tracker.vanitycore.co:6969/announceLast Monthsuccess6615
udp://public.popcorn-tracker.org:6969/announceLast Monthsuccess6217
udp://tracker.tiny-vps.com:6969/announceLast Monthsuccess6215
udp://inferno.demonoid.pw:3418/announceLast Monthsuccess3611
http://bigfoot1942.sektori.org:6969/announceLast Monthsuccess82
http://public.popcorn-tracker.org:6969/announceLast Monthsuccess20
http://tracker.vanitycore.co:6969/announceLast Monthsuccess20
udp://mgtracker.org:6969/announceLast Monthsuccess00
udp://tracker.xku.tv:6969/announceLast Monthsuccess00
udp://asnet.pw:2710/announceLast Monthsuccess00
udp://tracker.cypherpunks.ru:6969/announceLast Monthsuccess00
udp://castradio.net:6969/announceLast Monthsuccess00
http://tracker.opentrackr.org/announceLast Monthsuccess00
udp://tracker.mgtracker.org:2710/announceLast Monthsuccess00
udp://tracker.sktorrent.net:6969/announceLast Monthsuccess00
udp://p4p.arenabg.ch:1337/announceLast Monthsuccess00
udp://tracker.blackunicorn.xyz:6969/announceLast Monthsuccess00
udp://glotorrents.pw:6969/announceLast Monthsuccess00
udp://tracker.trackerfix.com:80/announceLast Monthsuccess00
http://tracker2.wasabii.com.tw:6969/announceLast Monthsuccess00
http://tracker.trackerfix.com/announceLast Monthsuccess00
udp://explodie.org:6969/announceLast Monthsuccess00




Torrent File Content (1 file)


Black Panther 2018 1080p BluRay x264 Dual Audio [Hindi DD 2.0 - English DD 5.1] ESub [MW]
     Black Panther 2018 1080p BluRay x264 Dual Audio [Hindi DD 2.0 - English DD 5.1] ESub [MW].mkv -
2.59 GB



Description




[url=http://pichub.site/image/MIjId]
http://pichub.site/images/2018/05/02/MV5BMTg1MTY2MjYzNV5BMl5BanBnXkFtZTgwMTc4NTMwNDI._V1_QL50_SY1000_CR006741000_AL_.md.jpg
[/url]


General
Format : Matroska
Format version : Version 4 / Version 2
File size : 2.59 GiB
Duration : 2 h 14 min
Overall bit rate : 2 753 kb/s

Video
ID : 1
Format : AVC
Format/Info : Advanced Video Codec
Format profile : [email protected]
Format settings : CABAC / 5 Ref Frames
Format settings, CABAC : Yes
Format settings, RefFrames : 5 frames
Codec ID : V_MPEG4/ISO/AVC
Duration : 2 h 14 min
Bit rate : 2 000 kb/s
Width : 1 920 pixels
Height : 804 pixels
Display aspect ratio : 2.40:1
Frame rate mode : Constant
Frame rate : 23.976 (24000/1001) FPS
Color space : YUV
Chroma subsampling : 4:2:0
Bit depth : 8 bits
Scan type : Progressive
Bits/(Pixel*Frame) : 0.054
Stream size : 1.86 GiB (72%)
Writing library : x264 core 155 r2893 b00bcaf
Default : Yes
Forced : No

Audio #1
ID : 2
Format : AC-3
Format/Info : Audio Coding 3
Codec ID : A_AC3
Duration : 2 h 14 min
Bit rate mode : Constant
Bit rate : 384 kb/s
Channel(s) : 2 channels
Channel positions : Front: L R
Sampling rate : 48.0 kHz
Frame rate : 31.250 FPS (1536 SPF)
Bit depth : 16 bits
Compression mode : Lossy
Stream size : 370 MiB (14%)
Language : Hindi
Service kind : Complete Main
Default : Yes
Forced : No

Audio #2
ID : 3
Format : AC-3
Format/Info : Audio Coding 3
Codec ID : A_AC3
Duration : 2 h 14 min
Bit rate mode : Constant
Bit rate : 384 kb/s
Channel(s) : 6 channels
Channel positions : Front: L C R, Side: L R, LFE
Sampling rate : 48.0 kHz
Frame rate : 31.250 FPS (1536 SPF)
Bit depth : 16 bits
Compression mode : Lossy
Stream size : 370 MiB (14%)
Language : English
Service kind : Complete Main
Default : No
Forced : No

Text
ID : 4
Format : UTF-8
Codec ID : S_TEXT/UTF8
Codec ID/Info : UTF-8 Plain Text
Duration : 2 h 14 min
Bit rate : 48 b/s
Count of elements : 1835
Stream size : 47.8 KiB (0%)
Language : English
Default : Yes
Forced : No




[url=http://pichub.site/image/MtlpY]
http://pichub.site/images/2018/05/20/00_05_25.md.jpg
[/url]
[url=http://pichub.site/image/Mt6b6]
http://pichub.site/images/2018/05/20/00_21_02.md.jpg
[/url]
[url=http://pichub.site/image/MtXct]
http://pichub.site/images/2018/05/20/00_29_06.md.jpg
[/url]
[url=http://pichub.site/image/Mtnv4]
http://pichub.site/images/2018/05/20/00_55_22.md.jpg
[/url]
[url=http://pichub.site/image/MtZSy]
http://pichub.site/images/2018/05/20/01_14_39.md.jpg
[/url]
[url=http://pichub.site/image/Mts9p]
http://pichub.site/images/2018/05/20/01_51_38.md.jpg
[/url]
[url=http://pichub.site/image/Mt1Kb]
http://pichub.site/images/2018/05/20/01_58_17.md.jpg
[/url]


Related torrents

Torrent NameAddedSizeSeedLeechHealth
Verified torrent
2 months ago - in Movies3.66 GB00
Verified torrent
Last Month - in Movies3.22 GB63
Verified torrent
2 months ago - in Movies5.7 GB37
Verified torrent
3 months ago - in Movies2.73 GB3431
Verified torrent
3 months ago - in Movies1.2 GB214

Note :

Feel free to post any comments about this torrent, including links to Subtitle, samples, screenshots, or any other relevant information. Please Dont Download anything from Comments, And Dont Post Links to Streaming Sites like Fmovies, Xmovies8, 123Movies, GoMovies, CMovieshd, Solarmovie, Watchfree, Putlockers, GoStream, m4ufree etc.

Comments (0 Comments)




Please login or create a FREE account to post comments

Latest Searches

| sea devils 1953 | bee film | Muchi Muchi Kyosei Seicho Ata Episode 2 Raw | cell theme | home s o s | Sheri S Tepper Southshore | hofstadter american | digital minutemen 2017 | bleach bleach 356 | Big Brother US S20E09 1080p WEB x264 TBS | creampie in the | HorribleSubs Black Clover 1080p | arrow ita s03e02 | new city dirty | Your Shape PAL English Wii www consolasatope |