Quick Browse
Movies
TV shows
Music
Games
Applications
Anime
Other

Latest Articles

Friends
RARBG
Torrents.me
Torrent Download
Movie4u
1337x
Torrent Downloads

LimeTorrents

Verified torrent Big Hero 6 2014 1080p BluRay x264 Dual Audio [Hindi 2.0 - English 2.0] ESub [MW]


    Seeders : 3      Leechers : 4


Note :

Please Update (Trackers Info) Before Downloading Torrents to See Updated Seeders And Leechers for Batter Download Speed.

Trackers List

Tracker NameLast CheckStatusSeedersLeechers
udp://9.rarbg.me:2710/announceLast Monthsuccess31
udp://tracker.opentrackr.org:1337/announceLast Monthsuccess31
udp://9.rarbg.to:2710/announceLast Monthsuccess31
udp://public.popcorn-tracker.org:6969/announceLast Monthsuccess21
udp://tracker.vanitycore.co:6969/announceLast Monthsuccess21
udp://tracker.pirateparty.gr:6969/announceLast Monthsuccess24
udp://tracker.coppersurfer.tk:6969/announceLast Monthsuccess24
udp://tracker.leechers-paradise.org:6969/announceLast Monthsuccess12
udp://eddie4.nl:6969/announceLast Monthsuccess12
udp://tracker.sktorrent.net:6969/announceLast Monthsuccess00
udp://mgtracker.org:6969/announceLast Monthsuccess00
udp://tracker.x4w.co:6969/announceLast Monthsuccess00
udp://tracker.mgtracker.org:2710/announceLast Monthsuccess00
http://tracker.opentrackr.org/announceLast Monthsuccess00
udp://tracker.internetwarriors.net:1337/announceLast Monthsuccess00
udp://tracker.zer0day.to:1337/announceLast Monthsuccess00
udp://asnet.pw:2710/announceLast Monthsuccess00
udp://explodie.org:6969/announceLast Monthsuccess00
udp://ipv4.tracker.harry.lu:80/announceLast Monthsuccess00
http://tracker.trackerfix.com/announceLast Monthsuccess00
http://bigfoot1942.sektori.org:6969/announceLast Monthsuccess00
http://announce.torrentsmd.com:6969/announceLast Monthsuccess00
udp://castradio.net:6969/announceLast Monthsuccess00
http://tracker2.wasabii.com.tw:6969/announceLast Monthsuccess00
udp://tracker.pomf.se:80/announceLast Monthsuccess00
udp://tracker.trackerfix.com:80/announceLast Monthsuccess00
udp://glotorrents.pw:6969/announceLast Monthsuccess00
udp://tracker4.piratux.com:6969/announceLast Monthsuccess00
udp://tracker.blackunicorn.xyz:6969/announceLast Monthsuccess00
udp://p4p.arenabg.ch:1337/announceLast Monthsuccess00
udp://tracker.mg64.net:6881/announceLast Monthsuccess00




Torrent File Content (1 file)


Big Hero 6 2014 1080p BluRay x264 Dual Audio [Hindi 2.0 - English 2.0] ESub [MW]
     Big Hero 6 2014 1080p BluRay x264 Dual Audio [Hindi 2.0 - English 2.0] ESub [MW].mkv -
1.99 GB



Description




[url=http://pichub.site/image/JbhoI]
http://pichub.site/images/2018/04/26/big-hero-6-a.md.jpg
[/url]


General
Format : Matroska
Format version : Version 4 / Version 2
File size : 1.99 GiB
Duration : 1 h 41 min
Overall bit rate : 2 791 kb/s

Video
ID : 1
Format : AVC
Format/Info : Advanced Video Codec
Format profile : [email protected]
Format settings : CABAC / 4 Ref Frames
Format settings, CABAC : Yes
Format settings, RefFrames : 4 frames
Codec ID : V_MPEG4/ISO/AVC
Duration : 1 h 41 min
Bit rate : 2 500 kb/s
Width : 1 920 pixels
Height : 808 pixels
Display aspect ratio : 2.40:1
Frame rate mode : Constant
Frame rate : 23.976 (23976/1000) FPS
Color space : YUV
Chroma subsampling : 4:2:0
Bit depth : 8 bits
Scan type : Progressive
Bits/(Pixel*Frame) : 0.067
Stream size : 1.78 GiB (90%)
Writing library : x264 core 152 r2851M ba24899
Default : Yes
Forced : No

Audio #1
ID : 2
Format : AAC
Format/Info : Advanced Audio Codec
Format profile : LC
Codec ID : A_AAC-2
Duration : 1 h 41 min
Bit rate : 192 kb/s
Channel(s) : 2 channels
Channel positions : Front: L R
Sampling rate : 48.0 kHz
Frame rate : 46.875 FPS (1024 SPF)
Compression mode : Lossy
Stream size : 140 MiB (7%)
Language : Hindi
Default : Yes
Forced : No

Audio #2
ID : 4
Format : AAC
Format/Info : Advanced Audio Codec
Format profile : LC
Codec ID : A_AAC-2
Duration : 1 h 41 min
Bit rate : 96.0 kb/s
Channel(s) : 2 channels
Channel positions : Front: L R
Sampling rate : 48.0 kHz
Frame rate : 46.875 FPS (1024 SPF)
Compression mode : Lossy
Stream size : 70.0 MiB (3%)
Language : English
Default : No
Forced : No

Text
ID : 3
Format : UTF-8
Codec ID : S_TEXT/UTF8
Codec ID/Info : UTF-8 Plain Text
Duration : 1 h 41 min
Bit rate : 46 b/s
Count of elements : 1326
Stream size : 34.2 KiB (0%)
Default : Yes
Forced : No






[url=http://pichub.site/image/JbChg]
http://pichub.site/images/2018/04/26/00_06_55.md.jpg
[/url]
[url=http://pichub.site/image/JbiWX]
http://pichub.site/images/2018/04/26/00_21_01.md.jpg
[/url]
[url=http://pichub.site/image/JbzV8]
http://pichub.site/images/2018/04/26/00_33_30.md.jpg
[/url]
[url=http://pichub.site/image/Jb8UJ]
http://pichub.site/images/2018/04/26/00_40_44.md.jpg
[/url]
[url=http://pichub.site/image/JbA15]
http://pichub.site/images/2018/04/26/00_50_40.md.jpg
[/url]
[url=http://pichub.site/image/JbKRh]
http://pichub.site/images/2018/04/26/01_05_41.md.jpg
[/url]
[url=http://pichub.site/image/JbGJk]
http://pichub.site/images/2018/04/26/01_13_57.md.jpg
[/url]
[url=http://pichub.site/image/JbmPr]
http://pichub.site/images/2018/04/26/01_27_08.md.jpg
[/url]


Related torrents

Torrent NameAddedSizeSeedLeechHealth
Verified torrent
2 months ago - in Movies949.18 MB00
Verified torrent
3 months ago - in Movies897.48 MB328
10 months ago - in Other2.22 GB00
Verified torrent
2 months ago - in Movies3.07 GB92
Verified torrent
2 months ago - in Movies836.22 MB00

Note :

Feel free to post any comments about this torrent, including links to Subtitle, samples, screenshots, or any other relevant information. Please Dont Download anything from Comments, And Dont Post Links to Streaming Sites like Fmovies, Xmovies8, 123Movies, GoMovies, CMovieshd, Solarmovie, Watchfree, Putlockers, GoStream, m4ufree etc.

Comments (0 Comments)




Please login or create a FREE account to post comments

Latest Searches

| TakeVan 18 06 18 Ashley Threesome With Model In The Field | sophia grace teens love | Ghosted s01e15 720p | bubble butt teen solo | amazing adventuresaround the world | yurizan beltran fame | av av 20272 | V a Mc mario | Our New Maid 3 peta | PrivateSociety 18 07 14 Angela And Jackie Sport ing After Work | black ops tekno | encore david garrett | bad girls pictures | kylie page allgirlmassage | collegerules 20 |